查看完整版本: [-- [剧情片] 任务迷走72小时/代号—72.AWOL.72.2015.1080p.BluRay.x264-HANDJOB --]

Bt7086 -> 正片大片 -> [剧情片] 任务迷走72小时/代号—72.AWOL.72.2015.1080p.BluRay.x264-HANDJOB [打印本页] 登录 -> 注册 -> 回复主题 -> 发表主题

脫拉庫 2019-08-15 13:37
[table=1491.82px][tr][td]

◎译  名 任务迷走72小时 / 代号—72
◎片  名 AWOL-72
◎年  代 2015
◎产  地 美国
◎类  别 惊悚
◎语  言 英语
◎上映日期 2015-09-25(美国)
◎IMDb评分 3.8/10 from 787 users
◎IMDb链接 http://www.****/title/tt2048865
◎豆瓣评分 4.1/10 from 235 users
◎豆瓣链接 https://movie.******/subject/25835393/
◎片  长 82分钟
◎导  演 Christian Sesma
◎编  剧 Christian Sesma / Cecil Chambers
◎主  演 鲁克·高斯 Luke Goss
      博基姆·伍德拜因 Bokeem Woodbine
      路易·曼迪勒 Louis Mandylor
      马克·可汗 Marco Khan
      莱昂纳德·凯利-扬 Leonard Kelly-Young
      Heather Roop
      Brooke Newton
      RZA
      Leif Gantvoort


◎标  签 动作 | 美国 | 特工 | 犯罪 | 2015 | 美国电影 | 烂片 | 惊悚

◎简  介 

  一个手握政府机密的AWOL海军成员正被俄国特工和一个危险的杀手追缉
Video
ID : 3
Format : AVC
Format/Info : Advanced Video Codec
Format profile : [url=mailto:[email protected]][email protected][/url]
Format settings : CABAC / 5 Ref Frames
Format settings, CABAC : Yes
Format settings, Reference frames : 5 frames
Codec ID : V_MPEG4/ISO/AVC
Duration : 1 h 22 min
Bit rate : 10.6 Mb/s
Width : 1 918 pixels
Height : 796 pixels
Display aspect ratio : 2.40:1
Frame rate mode : Constant
Frame rate : 23.976 (24000/1001) FPS
Color space : YUV
Chroma subsampling : 4:2:0
Bit depth : 8 bits
Scan type : Progressive
Bits/(Pixel*Frame) : 0.290
Stream size : 6.13 GiB (94%)
Writing library : x264 core 157 r2935 545de2f
Encoding settings : cabac=1 / ref=5 / deblock=1:-3:-3 / analyse=0x3:0x133 / me=umh / subme=10 / psy=1 / psy_rd=1.00:0.00 / mixed_ref=1 / me_range=32 / chroma_me=1 / trellis=2 / 8x8dct=1 / cqm=0 / deadzone=21,11 / fast_pskip=0 / chroma_qp_offset=-2 / threads=25 / lookahead_threads=6 / sliced_threads=0 / nr=0 / decimate=0 / interlaced=0 / bluray_compat=0 / constrained_intra=0 / bframes=16 / b_pyramid=2 / b_adapt=2 / b_bias=0 / direct=3 / weightb=1 / open_gop=0 / weightp=2 / keyint=240 / keyint_min=24 / scenecut=40 / intra_refresh=0 / rc_lookahead=60 / rc=crf / mbtree=0 / crf=14.0 / qcomp=0.60 / qpmin=0 / qpmax=69 / qpstep=4 / vbv_maxrate=62500 / vbv_bufsize=78125 / crf_max=0.0 / nal_hrd=none / filler=0 / ip_ratio=1.40 / pb_ratio=1.30 / aq=2:1.00
Default : Yes
Forced : No
Color range : Limited
Color primaries : BT.709
Transfer characteristics : BT.709
Matrix coefficients : BT.709

Audio
ID : 2
Format : AC-3
Format/Info : Audio Coding 3
Commercial name : Dolby Digital
Codec ID : A_AC3
Duration : 1 h 22 min
Bit rate mode : Constant
Bit rate : 640 kb/s
Channel(s) : 6 channels
Channel layout : L R C LFE Ls Rs
Sampling rate : 48.0 kHz
Frame rate : 31.250 FPS (1536 SPF)
Bit depth : 16 bits
Compression mode : Lossy
Stream size : 378 MiB (6%)
Language : English
Service kind : Complete Main
Default : Yes
Forced : No

Text
ID : 1
Format : UTF-8
Codec ID : S_TEXT/UTF8
Codec ID/Info : UTF-8 Plain Text
Duration : 1 h 17 min
Bit rate : 54 b/s
Count of elements : 1034
Stream size : 31.2 KiB (0%)
Language : English
Default : No
Forced : No


[td]【种子名称】:8.torrent[/td][td]【下载网址】: http://www1.downsx.pw/torrent/C42DB39CD049CB5857CDF83BD44DF4DF94795052

[/td]
[/td][/tr][/table]


查看完整版本: [-- [剧情片] 任务迷走72小时/代号—72.AWOL.72.2015.1080p.BluRay.x264-HANDJOB --] [-- top --]


在线播放   美女援交  手机影院