查看完整版本: [-- [剧情片] 此生.Livstid.2012.SWEDISH.1080p.BluRay.x264-HANDJOB --]

Bt7086 -> 正片大片 -> [剧情片] 此生.Livstid.2012.SWEDISH.1080p.BluRay.x264-HANDJOB [打印本页] 登录 -> 注册 -> 回复主题 -> 发表主题

脫拉庫 2019-08-18 10:23
[table=1034px][tr][td]

◎译  名 此生 / Annika Bengtzon-Crime Reporter: LifeTime / lifetime / 安妮卡班森:生存戰 / 安尼卡.班森.生存战 / 生存战
◎片  名 Livstid
◎年  代 2012
◎产  地 Sweden
◎类  别 剧情 / 犯罪
◎语  言 瑞典语
◎上映日期 2012-06-08
◎IMDb评分 6.2/10 from 1060 users
◎IMDb链接 http://www.****/title/tt2230422
◎豆瓣评分 0/10 from 0 users
◎豆瓣链接 https://movie.******/subject/11504255/
◎导  演 Ulf Kvensler
◎主  演 Malin Crépin


◎标  签 瑞典 | 电影 | 犯罪 | 2012 | 推理 | 悬疑 | 剧情 | 惊悚

◎简  介 

  金獎女星瑪琳克萍(Marlin Crepin)搖身成為一位犯罪記者,安妮卡班森。電影改編自麗莎馬克倫德(Liza Marklund)的暢銷系列小說。班森決定替一位女子洗清殺害警官丈夫與綁架孩子的罪名。
Video
ID : 1
Format : AVC
Format/Info : Advanced Video Codec
Format profile : [url=mailto:[email protected]][email protected][/url]
Format settings : CABAC / 4 Ref Frames
Format settings, CABAC : Yes
Format settings, Reference frames : 4 frames
Codec ID : V_MPEG4/ISO/AVC
Duration : 1 h 28 min
Bit rate : 11.4 Mb/s
Width : 1 920 pixels
Height : 1 080 pixels
Display aspect ratio : 16:9
Frame rate mode : Constant
Frame rate : 25.000 FPS
Color space : YUV
Chroma subsampling : 4:2:0
Bit depth : 8 bits
Scan type : Progressive
Bits/(Pixel*Frame) : 0.219
Stream size : 7.03 GiB (94%)
Writing library : x264 core 157 r2935 545de2f
Encoding settings : cabac=1 / ref=4 / deblock=1:-3:-3 / analyse=0x3:0x133 / me=umh / subme=10 / psy=1 / psy_rd=1.00:0.00 / mixed_ref=1 / me_range=32 / chroma_me=1 / trellis=2 / 8x8dct=1 / cqm=0 / deadzone=21,11 / fast_pskip=0 / chroma_qp_offset=-2 / threads=12 / lookahead_threads=3 / sliced_threads=0 / nr=0 / decimate=0 / interlaced=0 / bluray_compat=0 / constrained_intra=0 / bframes=16 / b_pyramid=2 / b_adapt=2 / b_bias=0 / direct=3 / weightb=1 / open_gop=0 / weightp=2 / keyint=250 / keyint_min=25 / scenecut=40 / intra_refresh=0 / rc_lookahead=60 / rc=crf / mbtree=0 / crf=17.2 / qcomp=0.60 / qpmin=0 / qpmax=69 / qpstep=4 / vbv_maxrate=62500 / vbv_bufsize=78125 / crf_max=0.0 / nal_hrd=none / filler=0 / ip_ratio=1.40 / pb_ratio=1.30 / aq=2:1.00
Default : Yes
Forced : No
Color range : Limited
Color primaries : BT.709
Transfer characteristics : BT.709
Matrix coefficients : BT.709

Audio
ID : 2
Format : AC-3
Format/Info : Audio Coding 3
Commercial name : Dolby Digital
Codec ID : A_AC3
Duration : 1 h 28 min
Bit rate mode : Constant
Bit rate : 640 kb/s
Channel(s) : 6 channels
Channel layout : L R C LFE Ls Rs
Sampling rate : 48.0 kHz
Frame rate : 31.250 FPS (1536 SPF)
Bit depth : 16 bits
Compression mode : Lossy
Stream size : 405 MiB (5%)
Language : Swedish
Service kind : Complete Main
Default : Yes
Forced : No

Text #1
ID : 3
Format : UTF-8
Codec ID : S_TEXT/UTF8
Codec ID/Info : UTF-8 Plain Text
Duration : 1 h 25 min
Bit rate : 47 b/s
Count of elements : 706
Stream size : 30.0 KiB (0%)
Language : English
Default : Yes
Forced : No

Text #2
ID : 4
Format : PGS
Muxing mode : zlib
Codec ID : S_HDMV/PGS
Codec ID/Info : Picture based subtitle format used on BDs/HD-DVDs
Duration : 1 h 27 min
Bit rate : 35.2 kb/s
Count of elements : 1680
Stream size : 22.0 MiB (0%)
Language : Swedish
Default : No
Forced : No

Text #3
ID : 5
Format : PGS
Muxing mode : zlib
Codec ID : S_HDMV/PGS
Codec ID/Info : Picture based subtitle format used on BDs/HD-DVDs
Duration : 1 h 27 min
Bit rate : 35.1 kb/s
Count of elements : 1666
Stream size : 22.0 MiB (0%)
Language : Norwegian
Default : No
Forced : No

Text #4
ID : 6
Format : PGS
Muxing mode : zlib
Codec ID : S_HDMV/PGS
Codec ID/Info : Picture based subtitle format used on BDs/HD-DVDs
Duration : 1 h 27 min
Bit rate : 34.5 kb/s
Count of elements : 1666
Stream size : 21.7 MiB (0%)
Language : Finnish
Default : No
Forced : No

Menu
00:00:00.000 : en:Chapter 1
00:10:17.000 : en:Chapter 2
00:20:10.600 : en:Chapter 3
00:28:59.440 : en:Chapter 4
00:39:40.040 : en:Chapter 5
00:49:58.240 : en:Chapter 6
01:00:00.280 : en:Chapter 7
01:10:00.080 : en:Chapter 8
01:20:00.320 : en:Chapter 9
01:26:51.040 : en:Chapter 10


[td]【种子名称】:6.torrent[/td][td]【下载网址】: http://www1.hgcdown.rocks/torrent/F2AAAB0757A2F5155B79E3025BDE69519C8E1E09

[/td]
[/td][/tr][/table]


查看完整版本: [-- [剧情片] 此生.Livstid.2012.SWEDISH.1080p.BluRay.x264-HANDJOB --] [-- top --]


在线播放   美女援交  手机影院