查看完整版本: [-- [犯罪片] 寻找斯蒂夫·麦昆 F.S.M.2019.1080p.BluRay.x264.DTS 5.1.MSubS-Hon3yHD --]

Bt7086 -> 正片大片 -> [犯罪片] 寻找斯蒂夫·麦昆 F.S.M.2019.1080p.BluRay.x264.DTS 5.1.MSubS-Hon3yHD [打印本页] 登录 -> 注册 -> 回复主题 -> 发表主题

脫拉庫 2019-08-18 10:35
[table=1034px][tr][td]

◎译  名 寻找斯蒂夫·麦昆 
◎片  名 Finding Steve McQueen
◎年  代 2018
◎国  家 美国
◎类  别 犯罪/爱情 
◎语  言 英语
◎IMDb评分 6.3/10 from 1469 users
◎IMDB链接 https://www.****/title/tt6032328/[/colo]
◎片  长 1 h 31 min   
◎导  演 马克·斯蒂文·约翰逊 Mark Steven Johnson
◎主  演 崔维斯·费米尔 Travis Fimmel
       莉莉·拉贝 Lily Rabe
       威廉·菲德内尔 William Fichtner


◎简  介 

  该片由马克·史蒂文·约翰逊执导,改编自美国历史上一次的真实银行抢劫案件。
复制代码
  1. Finding Steve McQueen 2019 1080p BluRay x264 DTS 5.1 MSubS - Hon3yHD

    Source: Remux @ Scene


    Format                      : Matroska
    Format version              : Version 4 / Version 2
    File size                   : 4.37 GiB
    Duration                    : 1 h 31 min
    Overall bit rate            : 6 834 kb/s
    Movie name                  : Finding Steve McQueen 2019 - Hon3yHD
    Encoded date                : UTC 2019-08-17 08:57:57
    Writing application         : mkvmerge v36.0.0 ('Is That Jazz?') 64-bit
    Writing library             : libebml v1.3.9 + libmatroska v1.5.2

    Video
    ID                          : 1
    Format                      : AVC
    Format/Info                 : Advanced Video Codec
    Format profile              : [email protected]
    Format settings, CABAC      : Yes
    Format settings, ReFrames   : 4 frames
    Codec ID                    : V_MPEG4/ISO/AVC
    Duration                    : 1 h 31 min
    Bit rate                    : 6 067 kb/s
    Width                       : 1 920 pixels
    Height                      : 1 040 pixels
    Display aspect ratio        : 1.85:1
    Frame rate mode             : Constant
    Frame rate                  : 23.976 (24000/1001) FPS
    Color space                 : YUV
    Chroma subsampling          : 4:2:0
    Bit depth                   : 8 bits
    Scan type                   : Progressive
    Bits/(Pixel*Frame)          : 0.127
    Stream size                 : 3.88 GiB (89%)
    Writing library             : x264 core 157 r2969 d4099dd
    Encoding settings           : cabac=1 / ref=4 / deblock=1:-1:-1 / analyse=0x3:0x133 / me=umh / subme=9 / psy=1 / psy_rd=1.00:0.15 / mixed_ref=1 / me_range=24 / chroma_me=1 / trellis=2 / 8x8dct=1 / cqm=0 / deadzone=21,11 / fast_pskip=0 / chroma_qp_offset=-3 / threads=12 / lookahead_threads=1 / sliced_threads=0 / nr=200 / decimate=1 / interlaced=0 / bluray_compat=0 / constrained_intra=0 / bframes=3 / b_pyramid=2 / b_adapt=2 / b_bias=0 / direct=3 / weightb=1 / open_gop=0 / weightp=2 / keyint=250 / keyint_min=23 / scenecut=40 / intra_refresh=0 / rc_lookahead=60 / rc=2pass / mbtree=1 / bitrate=6067 / ratetol=1.0 / qcomp=0.60 / qpmin=0 / qpmax=69 / qpstep=4 / cplxblur=20.0 / qblur=0.5 / ip_ratio=1.40 / aq=1:1.00
    Language                    : English
    Default                     : Yes
    Forced                      : No
    Color range                 : Limited
    Color primaries             : BT.709
    Transfer characteristics    : BT.709
    Matrix coefficients         : BT.709

    Audio
    ID                          : 2
    Format                      : DTS
    Format/Info                 : Digital Theater Systems
    Mode                        : 16
    Format settings, Endianness : Big
    Codec ID                    : A_DTS
    Duration                    : 1 h 31 min
    Bit rate mode               : Constant
    Bit rate                    : 768 kb/s
    Channel(s)                  : 6 channels
    Channel positions           : Front: L C R, Side: L R, LFE
    Sampling rate               : 48.0 kHz
    Frame rate                  : 93.750 FPS (512 spf)
    Bit depth                   : 24 bits
    Compression mode            : Lossy
    Stream size                 : 503 MiB (11%)
    Language                    : English
    Default                     : Yes
    Forced                      : No

    Text
    ID                          : 3
    Format                      : UTF-8
    Codec ID                    : S_TEXT/UTF8
    Codec ID/Info               : UTF-8 Plain Text
    Duration                    : 1 h 29 min
    Bit rate                    : 63 b/s
    Count of elements           : 1152
    Stream size                 : 41.7 KiB (0%)
    Language                    : English
    Default                     : Yes
    Forced                      : No

    Menu
    00:00:00.000                : en:Chapter 01
    00:05:07.890                : en:Chapter 02
    00:11:28.229                : en:Chapter 03
    00:16:36.662                : en:Chapter 04
    00:21:04.012                : en:Chapter 05
    00:30:22.570                : en:Chapter 06
    00:36:51.876                : en:Chapter 07
    00:43:00.077                : en:Chapter 08
    00:47:52.744                : en:Chapter 09
    00:55:21.693                : en:Chapter 10
    01:01:15.713                : en:Chapter 11
    01:07:14.405                : en:Chapter 12
    01:11:45.342                : en:Chapter 13
    01:15:02.581                : en:Chapter 14
    01:22:23.813                : en:Chapter 15
    01:28:33.975                : en:Chapter 16
  
[td]【种子名称】:7.torrent[/td][td]【下载网址】: http://www1.hgcdown.rocks/torrent/38BB930C7FAB30D02C97C564C0EC9AE3D5C65E6B

[/td][/td][/tr][/table]


查看完整版本: [-- [犯罪片] 寻找斯蒂夫·麦昆 F.S.M.2019.1080p.BluRay.x264.DTS 5.1.MSubS-Hon3yHD --] [-- top --]


在线播放   美女援交  手机影院