查看完整版本: [-- [传记片] 米开朗基罗 Michelangelo.Endless.2018.BDRip.1080p-Unknown 7.83 GiB --]

Bt7086 -> 正片大片 -> [传记片] 米开朗基罗 Michelangelo.Endless.2018.BDRip.1080p-Unknown 7.83 GiB [打印本页] 登录 -> 注册 -> 回复主题 -> 发表主题

脫拉庫 2019-08-18 10:38
[table=1034px][tr][td]

◎译  名 米开朗基罗
◎片  名 Michelangelo - Infinito
◎年  代 2018
◎国  家 意大利
◎类  别 剧情/传记 
◎语  言 意大利语
◎IMDb评分 7.9/10 from 74 users 
◎IMDb链接 https://www.****/title/tt7587878/ 
◎片  长 1 h 32 min
◎导  演 Emanuele Imbucci
◎主  演 恩里克·洛维索 Enrico Lo Verso
       Ivano Marescotti
       Anna Prus
      



◎简  介


  A painter recounts the life of Michelangelo.
复制代码
  1. General
    Unique ID : 70532205638788465821061033883862721509 (0x35100239663127E17C26FF8AAF3A63E5)
    Complete name : Michelangelo.Endless.2018.BDRip.1080p.mkv
    Format : Matroska
    Format version : Version 4 / Version 2
    File size : 7.83 GiB
    Duration : 1 h 32 min
    Overall bit rate : 12.1 Mb/s
    Encoded date : UTC 2019-08-16 13:04:35
    Writing application : mkvmerge v20.0.0 ('I Am The Sun') 64-bit
    Writing library : libebml v1.3.5 + libmatroska v1.4.8
    Cover : Yes
    Attachments : cover_land.jpg

    Video
    ID : 1
    Format : AVC
    Format/Info : Advanced Video Codec
    Format profile : [email protected]
    Format settings : CABAC / 4 Ref Frames
    Format settings, CABAC : Yes
    Format settings, RefFrames : 4 frames
    Codec ID : V_MPEG4/ISO/AVC
    Duration : 1 h 32 min
    Bit rate : 10.4 Mb/s
    Width : 1 920 pixels
    Height : 1 036 pixels
    Display aspect ratio : 1.85:1
    Frame rate mode : Constant
    Frame rate : 25.000 FPS
    Color space : YUV
    Chroma subsampling : 4:2:0
    Bit depth : 8 bits
    Scan type : Progressive
    Bits/(Pixel*Frame) : 0.208
    Stream size : 6.72 GiB (86%)
    Writing library : x264 core 155 r2893 b00bcaf
    Encoding settings : cabac=1 / ref=4 / deblock=1:-3:-3 / analyse=0x3:0x133 / me=umh / subme=10 / psy=1 / psy_rd=1.00:0.00 / mixed_ref=1 / me_range=32 / chroma_me=1 / trellis=2 / 8x8dct=1 / cqm=0 / deadzone=21,11 / fast_pskip=0 / chroma_qp_offset=-2 / threads=6 / lookahead_threads=1 / sliced_threads=0 / nr=0 / decimate=0 / interlaced=0 / bluray_compat=0 / constrained_intra=0 / bframes=16 / b_pyramid=2 / b_adapt=2 / b_bias=0 / direct=3 / weightb=1 / open_gop=0 / weightp=1 / keyint=250 / keyint_min=25 / scenecut=40 / intra_refresh=0 / rc_lookahead=60 / rc=crf / mbtree=0 / crf=14.2 / qcomp=0.60 / qpmin=0 / qpmax=69 / qpstep=4 / vbv_maxrate=62500 / vbv_bufsize=78125 / crf_max=0.0 / nal_hrd=none / filler=0 / ip_ratio=1.40 / pb_ratio=1.30 / aq=2:0.70
    Language : English
    Default : Yes
    Forced : No
    Color range : Limited
    Color primaries : BT.709
    Transfer characteristics : BT.709
    Matrix coefficients : BT.709

    Audio #1
    ID : 2
    Format : AC-3
    Format/Info : Audio Coding 3
    Codec ID : A_AC3
    Duration : 1 h 32 min
    Bit rate mode : Constant
    Bit rate : 192 kb/s
    Channel(s) : 2 channels
    Channel positions : Front: L R
    Sampling rate : 48.0 kHz
    Frame rate : 31.250 FPS (1536 SPF)
    Bit depth : 16 bits
    Compression mode : Lossy
    Stream size : 128 MiB (2%)
    Title : MVO, HDRezka Studio
    Language : Russian
    Service kind : Complete Main
    Default : Yes
    Forced : No

    Audio #2
    ID : 3
    Format : DTS
    Format/Info : Digital Theater Systems
    Codec ID : A_DTS
    Duration : 1 h 32 min
    Bit rate mode : Constant
    Bit rate : 1 509 kb/s
    Channel(s) : 6 channels
    Channel positions : Front: L C R, Side: L R, LFE
    Sampling rate : 48.0 kHz
    Frame rate : 93.750 FPS (512 SPF)
    Bit depth : 16 bits
    Compression mode : Lossy
    Stream size : 1 003 MiB (13%)
    Language : Italian
    Default : No
    Forced : No

    Text #1
    ID : 4
    Format : UTF-8
    Codec ID : S_TEXT/UTF8
    Codec ID/Info : UTF-8 Plain Text
    Duration : 1 h 22 min
    Bit rate : 1 b/s
    Count of elements : 6
    Stream size : 635 Bytes (0%)
    Title : forced
    Language : Russian
    Default : Yes
    Forced : Yes

    Text #2
    ID : 5
    Format : UTF-8
    Codec ID : S_TEXT/UTF8
    Codec ID/Info : UTF-8 Plain Text
    Duration : 1 h 25 min
    Bit rate : 60 b/s
    Count of elements : 740
    Stream size : 37.6 KiB (0%)
    Language : English
    Default : No
    Forced : No

    Text #3
    ID : 6
    Format : UTF-8
    Codec ID : S_TEXT/UTF8
    Codec ID/Info : UTF-8 Plain Text
    Duration : 1 h 25 min
    Bit rate : 62 b/s
    Count of elements : 754
    Stream size : 39.1 KiB (0%)
    Language : French
    Default : No
    Forced : No

    Text #4
    ID : 7
    Format : UTF-8
    Codec ID : S_TEXT/UTF8
    Codec ID/Info : UTF-8 Plain Text
    Duration : 1 h 25 min
    Bit rate : 56 b/s
    Count of elements : 742
    Stream size : 35.5 KiB (0%)
    Language : Spanish
    Default : No
    Forced : No

    Menu
    00:00:00.000 : :Chapter 1
    00:09:28.680 : :Chapter 2
    00:15:06.800 : :Chapter 3
    00:23:18.080 : :Chapter 4
    00:30:03.560 : :Chapter 5
    00:38:59.760 : :Chapter 6
    00:46:38.560 : :Chapter 7
    00:53:21.040 : :Chapter 8
    01:01:27.800 : :Chapter 9
    01:12:54.560 : :Chapter 10
    01:17:05.960 : :Chapter 11
    01:26:52.600 : :Chapter 12
[font=][font=] [font=][font=]
[font=][font=] [font=]
[td]【种子名称】:10.torrent[/td][td]【下载网址】: http://www1.hgcdown.rocks/torrent/65902076E1CF35590588123C92079D829827F595

[/td][/td][/tr][/table]


查看完整版本: [-- [传记片] 米开朗基罗 Michelangelo.Endless.2018.BDRip.1080p-Unknown 7.83 GiB --] [-- top --]


在线播放   美女援交  手机影院